extratorrent - A Fan Made Alternative Login   |   Register
Important Information
Registrations are open now
-------------------------------------

Please click here to register with Extratorrent2 to recieve latest updates, add bookmarks and to post comments.

Friends
Friends

1) ProxyFix

Extratorrent2 > Categories > Movies > Hereditary (2018) 1080p Bluray English x264 AC3 Encoded By-RishiBhai[RDLinks] torrent


Browse Movies torrents

Hereditary (2018) 1080p Bluray English x264 AC3 Encoded By-RishiBhai[RDLinks] torrent


Download torrent: Download Hereditary (2018) 1080p Bluray English x264 AC3 Encoded By-RishiBhai[RDLinks] torrent Magnet link Bookmark Torrent: Hereditary (2018) 1080p Bluray English x264 AC3 Encoded By-RishiBhai[RDLinks]   Hereditary (2018) 1080p Bluray English x264 AC3 Encoded By-RishiBhai[RDLinks] torrent
Info hash: 84881514A327C9DEB4D3925049F49F497B861C95
Category: Categories > Movies
Trackers:
View all torrent trackers >
Health:
 seeds: 14 ,  leechers: 6 |  Update >
Torrent language: English English
Total Size: 4.1 GB
Files List:
6    View torrent files >
Uploader:
RishiBhai
Torrent added: September 2, 2018, 5:19 pm
Tags: Thriller, Horror, RishiBhai, RDLinks, 1080p, Bluray
Users rating: ---, not rated. please login to rate.

Download Hereditary (2018) 1080p Bluray English x264 AC3 Encoded By-RishiBhai[RDLinks] torrent



Torrent Description



Code:



General
Complete name : Hereditary (2018) 1080p Bluray English x264 AC3 Encoded By-RishiBhai[RDLinks].mkv
Format : Matroska
Format version : Version 4 / Version 2
File size : 4.13 GiB
Duration : 2 h 7 min
Overall bit rate mode : Variable
Overall bit rate : 4 643 kb/s
Movie name : Encoded & Released By-RishiBhai[RDLinks]
Encoded date : UTC 2018-08-24 17:23:06
Writing application : Lavf58.17.100
Writing library : Lavf58.17.100
ErrorDetectionType : Per level 1

Video
Format : AVC
Format profile :
Format settings : CABAC / 2 Ref Frames
Format settings, CABAC : Yes
Format settings, RefFrames : 2 frames
Codec ID : V_MPEG4/ISO/AVC
Duration : 2 h 7 min
Bit rate mode : Variable
Bit rate : 4 000 kb/s
Maximum bit rate : 40.5 Mb/s
Width : 1 920 pixels
Height : 1 080 pixels
Display aspect ratio : 2.000
Frame rate mode : Constant
Frame rate : 23.976 (24000/1001) FPS
Color space : YUV
Chroma subsampling : 4:2:0
Bit depth : 8 bits
Scan type : Progressive
Bits/(Pixel*Frame) : 0.080
Stream size : 3.48 GiB (84%)
Writing library : x264 core 155 r2901
Language : English
Default : Yes
Forced : No

Audio
Format : AC-3
Format/Info : Audio Coding 3
Codec ID : A_AC3
Duration : 2 h 7 min
Bit rate mode : Constant
Bit rate : 640 kb/s
Channel(s) : 2 channels
Channel positions : Front: L R
Sampling rate : 48.0 kHz
Frame rate : 31.250 FPS (1536 SPF)
Bit depth : 16 bits
Compression mode : Lossy
Stream size : 583 MiB (14%)
Title : English-Rishi
Writing library : Lavc58.19.104 ac3_fixed
Language : English
Service kind : Complete Main
Default : Yes
Forced : No

Text
ID : 3
Format : UTF-8
Codec ID : S_TEXT/UTF8
Codec ID/Info : UTF-8 Plain Text
Duration : 2 h 2 min
Title : Eng-Rishi
Default : No
Forced : No




Screenshots:-













Quote:

Uploader's Note:-

Source credits goes to GECKOS(Thanks!!!)
Encoded in fixed resolution 1920x1080p
Always download quality torrents from "RishiBhai".

Download Hereditary (2018) 1080p Bluray English x264 AC3 Encoded By-RishiBhai[RDLinks] torrent


Related Torrents


Comments   (please login to add your comment!)

nipples     classics     ferrera     valentina xxx     try     audrey bitoni     all sex     mila kunis     pics     720p hevc x265     devin townsend     valentina nappi 1080p     mayweather mcgregor     supreme     1pondo     2015 720p bluray hindi     carine     bahubali 2 1080p hindi     18 only     1080p mp4     code black     climax     lust and love     365     


Home - Browse Torrents

Made with love by an Extratorrent Fan!